Classic Trance Albums

Advance tickets are available at Skiddle. Buy products such as TRANCE NATION [VARESE], THIS IS TRANCE! 2 at Walmart and save. His music has often been described by audience as "evocative" and "mesmering" Forming the essence of his compositions, soothing vocals and delicate fingerpicking played on alternate tunings are Vignal's trademark. Expect a blend of the hottest in trance and progressive. Metallica is an American heavy metal band formed in October 1981. This is a definite in any psychedelic trance music collection. Beautiful melodies and endless energy. Online Radio Station - Click above for listening to live TranceElements New Trance Releases. Classic Euphoria is a compilation album released by Ministry of Sound in 2006. Top Psychedelic/Space Rock artists: Pink Floyd, Eloy, Hawkwind, Ozric Tentacles, Nektar, Omega, No-Man, Amplifier, Oceansize, Crippled Black Phoenix, Vespero, Jade Warrior, The Legendary Pink Dots, Astra, Nemrud, and more. Albert & Son. Billboard Top 100 Hits Of 1982 (Billboard Year-End Hot 100). Welcome to Juno Download, styles. Time for another fan of French impressionism in the pop world - Janelle Monae was discovered by Big Boi of OutKast. 3 (CD) at Walmart and save. played Linda, a bit part in the Scorsese-De Niro boxing classic Raging Bull, after which she co-starred as buxom bikini beach body builder Deidre in the. Related • The 100 Best Albums of. Kraftwerk returned the favour by namechecking him and Iggy Pop on Trans-Europe Express. The three CD set features popular dance singles from the period of 1991-2007 (despite the "2008" in the title). 2 AC/DC, "You Shook Me All Night Long" Via J. Dance Record Store was established in 1999 and is now proving to be one of the world's most prestigious online music store sites for sourcing Classic Vinyl, Rare Vinyl and Deleted Old Skool Dance Vinyl music. mixed by robert nickson. 14 comments on Classic Trance kac2868 plus February 03, 2015. Anthems 1991-2008 is a compilation album released by Ministry of Sound in Australia and the UK. Classic trance employs a 4/4 time signature, a tempo of 125 to 150 BPM, and 32 beat phrases and is somewhat faster than house music. Psychomanteum Immolation 3. Euphoria Albums. In Trance is my favorite Scorpions album with Uli Jon! There are many fantastic, heavy hitting songs, music and performances on this great album, imo! You've great taste in music and albums, e. Please remember the community rules when posting and try to be polite and inclusive. rar | 365,28 Mb. Our Dream World 6. Three Dog Night. 15 of the Very Best Classic House Anthems. Well, you're all sorted out for the holidays. Astral Projection – Trust in Trance. Step back in time with every NOW album from 1983!. Download Albums. There's nothing like the feeling you get when Trance lifts you up, when the evolving melodies and breathtaking breakdowns elevate you to your heart's content. Angelic Stairway 5. Gatecrasher Classics is a three cd by various artists containing 17 songs on cd one, 17 songs on cd two, and 16 songs on cd three. 21 Classic Rock Workout Songs. Giuseppe Ottaviani. A Total Electric Happening '1968. 14 comments on Classic Trance kac2868 plus February 03, 2015. This coming Sat Feb 1st I'm bringing my Trance Anthems to The Live Rooms in Chester. Bringing around 35 minutes of metallic yet captivating riffs, Trance's Victory is an undiscovered gem, as long as one does not mind the reduced heaviness from the previous albums. Like Ferry Corsten last month, Paul van Dyk has released a new ambient album titled Escape Reality. I just wanted to say thank you for everyone stopping by; whether you are discovering house music for the first time, or re-visiting old memories of vinyl spinning days gone by. Dance Record Store was established in 1999 and is now proving to be one of the world's most prestigious online music store sites for sourcing Classic Vinyl, Rare Vinyl and Deleted Old Skool Dance Vinyl music. , this wide-ranging collection of lost classics. Soft Cell - Tainted Love (Dmc Remix) 6:42 04. 3 (CD) at Walmart and save. Trance music the way it was meant to be: smoother and spacier than house, more melodic than techno. Her 'My Reverie' is a delicate version of Debussy's 'Reverie'. Sep 30, 17 albums. Trance was still in the early stages of its development at the turn of the 90s, but the signs of a sound that would grow into a global phenomenon that persists 30 years later were clear. As their output slowed in the 1980s, the band's sound became the bedrock of early hip-hop. Trance is a genre that started out with the purpose of creating a true entrancement in people. DJ Baddo - Odun Joro Mix Mp3 Download. 5 CLASSIC '90S TRANCE ANTHEMS. About a week and a half ago, the server which listology lived on suffered a catastrophic failure. Trance Fusion 2020 25 8. Just recently I started to give trance music a longer listen ( I am 64 ) I love the keyboard rifts, this cd must cover all The classic tunes, that's why I give it 5 stars. Advance tickets are available at Skiddle. The album, a 3CD collection featuring the greatest DJs of all time, can be pre-ordered on Amazon as MP3 (£8. Through a perfect storm of circumstances far too lengthy and tedious to explain, I found myself without an easy backup from which to restore, and my hosting provider found themselves unable to restore my site from the weekly server images that they store every week. Jekyll films released in 1920. UPDATE - Although a couple of my posts on this blog have gone viral, I consistently get the most hits from this one page. This album was released in 2015 and it belongs to Trance, Classic Trance, Uplifting Trance, Vocal Trance genres. Sep 30, 17 albums. Goa Trance - Best Tracks and Albums Asia 2001 - Live - 1996 - [4] - Rakshas - Good stuff, and the 2 remixes from MFG round if off well. Over his career, he released five albums, sold over 14 million records, received many awards including a BRIT Award, a World Music Award, multiple gold and platinum discs and he even featured in film soundtracks including ‘The Bourne Identity’. AccuRadio Online Radio: Free Internet Radio Music Stations. Ex: Dj Tiësto Innercity 99/ Yahel- Around the World/ Leon Bolier- Pictures. Moonshine has been at the forefront of dance music in North America and draws upon its wealth of experience and its ear for the hottest European producers in crafting the double-disc TRANCE CLASSICS. Timeless Classic Movies/YouTube This silent film adaptation on Robert Louis Stevenson’s The Strange Case of Dr. Studio Albums or Compilation Series. GoAtma - Listen 2. When Trance was Good! Download Tracklist (. All of them are included in this album and believe me ALL of them are gorgeous. Very simple - you just make sure that every album in it falls into the definition in the title: being a classic album that every Psytrance lover should know. Ion Vader - Trip to Nowhere 7. With music streaming on Deezer you can discover more than 56 million tracks, create your own playlists, and share your favourite tracks with your friends. Progressive Psy Trance Vol 1 (2020) Kontor Top of the Clubs: Electric 80s [3CD Box Set] (2019) Electronic, Rap, Indie, R&B & Dance Music Collection Pack (2020-05-03) Beatport Music Releases Pack 1970 (2020) Beatport Music Releases Pack 1969 (2020) Armin van Buuren Top 100 (2020) Retro Remix Quality Vol. Find classic trance tracks, artists, and albums. The three CD set features popular dance singles from the period of 1991-2007 (despite the "2008" in the title). The album is a tribute to his daughter. These are the albums that have shifted moods and created new worlds. The BPM range of Trance can be anywhere from 115 BPM to 155 BPM, which is made. mixed by robert nickson. The Quest – […]. Find the latest in classic trance music at Last. Moonshine has been at the forefront of dance music in North America and draws upon its wealth of experience and its ear for the hottest European producers in crafting the double-disc TRANCE CLASSICS. Listen to Dance Club Hits - The Best Of Dance, House, Techno, Trance and Old School Classic Disco Tunes by Various Artists on Deezer. Hot Smoke '1969. To add an article to this category, use {{2000s-trance-album-stub}} instead of {. The BPM range of Trance can be anywhere from 115 BPM to 155 BPM, which is made. Whether it is for your next remix project, to learn about those awesome chords, or if you need feed for your synths to experiment with in the studio, we have got you covered. discooo afrobeat trap world dubstep fuuunk. A trance is defined as 'a state of complete mental absorption or deep musing,' and that's exactly how this music makes you feel. Label: Substance / Year: 1996. Shop for Trance in Dance & DJ Music on CD or Vinyl. 150 Songs on 10 CDs. Trance Classics, Vol. Download Trance-Classics Torrent at TorrentFunk. 2 Sticky 26 marzo, 2017 descargagratismsicatrance ARMIN VAN BUUREN, MINISTRY OF SOUND, trance, TRANCE REMEMBER Deja un comentario. Bandcamp New & Notable Apr 14, 2017 go to album. In my opinion it's still one of the best trance compilations ever released and shows the variation of moods that were around in trance at that time. Love, Trance & Potatoes 4. Sign in to check out Check out as guest. Their 2013 single 'Little Me' nabs the tune of his Pavane and turns it into a R&B anthem. No hit an miss albums. Warm Desert Sands 2. Compilacion de mas de +220 temas clasicos sueltos en mp3 de musica electronica(1990-2004) de calidad 320kbps-music techno trance house acid hard etcactualiazacion de temas semanalmente compilation of +220 320 kbps classic tracks of oldschool music (1990-2004) 320kbps techno trance house acid hard progresive etcadd more tracks all weekends. Red Sunset 2 7. Lick Library Classic Albums Whitesnake 1987 (2017) Lick Library Classic Albums Hotel California (2017) Licklibrary Classic Albums Led Zeppelin II (2017) Hal Leonard Guitar Signature Licks Jimi Hendrix Volume 2 PDF MP3; PUREMIX Darrell Thorp Mixing Foster The People TUTORiAL-SYNTHiC4TE; Mix With The Masters Deconstructing a Mix #14 Tchad Blake. mixed by robert nickson. Whetting their fans' appetite for more mouth-watering, Trance-flavored goodness to come from the album on its release … Gareth Emery & Ashley Wallbridge Launch Pre-Order Of 'Kingdom United' Album With New Single 'Amber Sun'! Read More ». Highlights include a few Paul van Dyk tracks, such as "Words (for Love)," his mix of "1998" by Binary Finary, and "Rendezvous" (Quadraphonic Mix) with Tilt, while other classics abound. so i usually get myself seperated tracks and make me collection. Trance music the way it was meant to be: smoother and spacier than house, more melodic than techno. - Fall In Love With Piano Album FANCY - GOLDEN HITS FANCY Album V. ‎Album · 2019 · 16 Songs. Jekyll films released in 1920. No hit an miss albums. Euphoria is a series of dance music albums that debuted in early 1999 originally on the Telstar Records Label. A State of Trance 500 - Official Armada Website / Amazon / Spotify / Discogs Probably one of my favorite compilations ever, and definitely my favorite of the ASOT compilation series. DJ OP Dot - Best Of Naira Marley Mix Mp3 Download. Our month-by-month guide to 2020's new and upcoming album releases is the only album calendar you need. The Best Trance Albums of 1999. Updates Trance albums Breakbeat Downtempo Drum and Bass EBM Electro Hardcore Techno House IDM Indie Electronic Techno Trance UK Garage Ambient Dubstep Morgenstund Schiller 2019 $6. TITLE TIME; 1. I Swing Noir: Music From Jazz Clubs of the 1930s - Various MTV VMAs Ratings Drop Again, Draw 6. Luca Lozano's interpretation sits somewhere between a remix and an edit, swapping out the original drums for an 808 and some breakbeats. Gritty, grimy and full of concussive, wall-to-wall blasts of bass-drenched mayhem, The Fat of the Land shares more in common with punk aesthetics and formality than it does with any other breakbeat-centric electronic. Bandcamp New & Notable Apr 14, 2017 go to album. Zirenz: Shine. Trance Album Releases 2006 including Above & Beyond, Binary Finary, Gabriel & Dresden and Paul Oakenfold Recommended Trance - YouTube playlists of the best new trance music and classic tunes. By 1998, most of the country's best-known DJs -- Paul Oakenfold, Pete Tong, Tony De Vit, Danny Rampling, Sasha, Judge Jules -- were playing trance in Britain's superclubs. The most recommended albums and singles of all time. - Trance The Vocal Session 2005 Vol. 151 Songs on 10 CDs. List some trance albums that you think are perfect. 2 Inon Barnatan & Alan Gilbert, Academy of St. Rising Star - Touch Me (Sebastian Brandt remix) Pulser - Cloudwalking (Trance Renaissance Mix) Binary Finary - 1998 (Alex M. The Best Trance Albums of 1999. The Elephant's March 7. Classic trance employs a 4/4 time signature, a tempo of 125 to 150 BPM, and 32 beat phrases and is somewhat faster than house music. Say The Word - Remixes. It was interesting to see a song titled Stella on this collection and for some reason the songs Everyday, Happiness, and Bird of Prey musically pierced my soul right away. Lyric Search If you're looking for song lyrics then give Seek a Lyric a visit. Immediately following Candy-O, Candy M. CD3 Yo-Yo Ma The Classic Albums Collection 15 1903. Album Release date Songs Rating; Paul Vinitsky feat. Great rock of the '90s and classic rockers' more recent recordings. 7 MB CD5 Yo-Yo Ma The Classic Albums Collection 15 1903. A State Of Trance 950 (The Official Album) - Extended Versions. The Great Mystery by Desert Dwellers, released 20 March 2015 1. , this wide-ranging collection of lost classics. 00: Jacky Q: No Limits 2019 1 8. First song got me. Coldharbour Recordings. Apart from “Don’t Stop!,” Movin’ Melodies also spawned the classic singles “9 PM (Till I Come)” and “Killer 2000. Sababa Time 6. 5 CLASSIC '90S TRANCE ANTHEMS. A new music service with official albums, singles, videos, remixes, live performances and more for Android, iOS and desktop. Beautiful melodies and endless energy. just bought today"trance world 5" it's not an album but one of the best collections i have ever heard. Welcome to Juno Download, styles. While there are hundreds of thousands of melodic, beautiful tracks all between 125 and 160 beats per minute, there are few which stand the test of time and fall into the "classics" territory. Thought it might be interesting for newer trance fans to see what trance was like 20+ years ago. My music tastes are from prodigy to Hayley Westenra, it's nice to Listen to different music. ADVERTISEMENT. Various - The Sound Of The Electric 80s Part 01 12:10 06. This list was then merged with the albums’ overall status in Dave’s Music Database to create this R&B/soul-specific list. A lot of the albums before this were very good, especially Keys to Ascension, but there is this bizarre, nostalgic, 70s feeling you get from this album. White-Eyed Trance (Ensnared in Devilry) 8. A State Of Trance 950 (The Official Album) - Extended Versions. ‎Album · 2019 · 16 Songs. Children and Fable should be #1 and #2 on ANY trance list, because it was those songs specifically were the biggest trance blockbuster tracks of all time. These are the albums that have shifted moods and created new worlds. All I Wanna Do Is Rock '1973. About File Formats. Niccolò B feat. discooo afrobeat trap world dubstep fuuunk. In my opinion it's still one of the best trance compilations ever released and shows the variation of moods that were around in trance at that time. I think yiou accidently slipped and fell into the wrong forum buddy but feel free to stick around and listen to some of the above mentioned tracks. Album Release date Songs Rating; Paul Vinitsky feat. Includes the Extended Version and San Frandisco Mix. Due to the success and the very positive response to it we decided to continue our collaboration and now Vlastur has pushed the borders of his. , and almost all his tracks seem to be meant for parties. However, there is also multitude of other classic trance and dance songs on this Gatecrasher Classics set dealing with songs such as suburban Train, Push, Lustral, Solar Stone, Barber's Adagio for Strings, Bullet In The Gun, For An Angel, Communication, Love Stimulation, Greece 2000, Silence, Rapture, and so much more. It was a very successful album, and led it to become the first in a series. Studio Albums or Compilation Series. Relaxing Songs (2020) Progressive Psy Trance Vol 1 (2020) Kontor Top of the Clubs: Electric 80s [3CD Box Set] (2019) Electronic, Rap, Indie, R&B & Dance Music Collection Pack (2020-05-03) Beatport Music Releases Pack 1970 (2020) Beatport Music Releases Pack 1969 (2020) Armin van Buuren Top 100 (2020) Retro Remix Quality Vol. 000 MIDI files in house, progressive, trance, electro, dubstep, hardstyle and many other dance genres. Classic Euphoria is a compilation album released by Ministry of Sound in 2006. Many people may confused trance music with trip-hop or techno music, but trance really is a genre of music that stands on its own. More Classic Rock Channels. Also club dj mix, party dance music, mixtapes, livesets and EDM shows. While there are hundreds of thousands of melodic, beautiful tracks all between 125 and 160 beats per minute, there are few which stand the test of time and fall into the "classics" territory. Table Dennis Extended Mix. 2 (New Level) Album V. Anuradha Genrich - View from Laniakea 5. Kay Cee – Millenium Stringz 02. With music streaming on Deezer you can discover more than 56 million tracks, create your own playlists, and share your favourite tracks with your friends. Black Hole Recordings. This article does not cite any sources. Techno Trax Vol. FREE DOWNLOAD ENTIRE ALBUM (SCARICALO GRATIS) – Artist: Armin van Buuren Title: A State Of Trance Top 20 – March (Including Classic Bonus Track) Label: A State Of Trance Holland – Armada Music Style: Progressive, Uplifting, Melodic, Tech-Trance Release Date: 10-03-2017 Format: CD, Compilation Quality: 320 Kbps/Joint Stereo/44100Hz Tracks: 21 Tracks Size: 175 Mb / […]. Red Sunset 2 7. Table Dennis Extended Mix. Out Now: A State Of Trance 2020 (Mixed by Armin van Buuren) April 24, 2020. 7 MB CD5 Yo-Yo Ma The Classic Albums Collection 15 1903. I just wanted to say thank you for everyone stopping by; whether you are discovering house music for the first time, or re-visiting old memories of vinyl spinning days gone by. Fluorotronik is a pure Goa trance compilation emphasizing high-intensity night time killers in the Tranceform Record style. Ghostly Emanations in the Mortuary 6. Over 1700 of the top international music labels rely on zipDJ as part of their marketing and promotion initiatives. Last Updated: 20 December 2017. UPDATE - Although a couple of my posts on this blog have gone viral, I consistently get the most hits from this one page. First song got me. 00: Jacky Q: No Limits 2019 1 8. Trance Albums Released In 2017. The DMS classic trance MIDI file series recreates the extreme euphoria of the late 90's trance explosion. Lots of new UK Tour dates just added in the Dj Dates section. zipDJ distributes upfront promotional releases to. Regenerate Records. Infact it can be safely said that one can recognize which track is Tiesto's from a bunch of unheard tracks. On The Air '1970. We hope for you very much. Home / Music / Alternative Choose Play on Napster. Download free midi songs. Trance Fusion 2020 25 8. In The Night 9. Released back in 1999 and reaching the number six position on the UK Singles Chart Chicane's Saltwater has become a popular trance track in clubs across Europe. Free music downloads and streaming. Gatecrasher Classics is a three cd by various artists containing 17 songs on cd one, 17 songs on cd two, and 16 songs on cd three. The best trance albums released in 2017 with track lists, audio player, and video trailers. It was interesting to see a song titled Stella on this collection and for some reason the songs Everyday, Happiness, and Bird of Prey musically pierced my soul right away. Techno Eyes is a study of some of the specific ideas at the core of classic techno, electronica, trance, and progressive house genres. Classic Trance Anthems Album). Huey Lewis Unable To Sing, Perform Due To 'Debilitating Hearing Loss'… Joey Kramer Joins Aerosmith Onstage At MusiCares Honors, Does Not Perform… Experts Detail How Parkinson's Could Affect Ozzy Osbourne's Singing … Chat About The Classic Rock Channel. The DMS classic trance MIDI file series recreates the extreme euphoria of the late 90's trance explosion. Soft Cell - Tainted Love (Dmc Remix) 6:42 04. Eyes closed. Join Napster and access full-length songs on your phone, computer or home audio device. Global Nav Open Menu Global Nav Close Menu; Early Works - Classic Trance Collection (Remastered Bestof-Edit) Argo74 Trance 2019; Listen on Apple Music. Janelle Monáe - Say You'll Go / Debussy - Clair de Lune. Killer Canadian Classic Rock. Trance Classics - CD1 Label: Moonshine Music Format: 2xCD Compilation, CD1, Mixed Country: US Released: 2003 Genre: Electronic Style: Trance Tracklist: 01. Well, you're all sorted out for the holidays. Download links and information about Classic Trance Collection Vol. 5 MB CD6 Yo-Yo Ma The Classic Albums Collection 15 1903. A studio album has been made (hopefully) by selecting the best takes of a piece. The sound has dwindled in popularity in the wake of the EDM explosion, with many of its main characters moving away from the scene and into more commercial spheres. Moonshine has been at the forefront of dance music in North America and draws upon its wealth of experience and its ear for the hottest European producers in crafting the double-disc TRANCE CLASSICS. Out Now: A State Of Trance 2020 (Mixed by Armin van Buuren) April 24, 2020. 400k lyrics!. It wont even go down as a hard trance classic and when I say hard trance, I am talkin about the post year 2000 bullshit hard trance that stole a name from a genre of decent music from the 90s. So here are 10 classic albums embedded in no particular order, all straight from the 90's, the golden age of Goa Trance. zipDJ is one of the world's most advanced music promo pool designed for DJs by DJs. 6 Music's Steve Lamacq has marked the 25th anniversary of Oasis' classic album Definitely Maybe with a special show commanding quasi-trance of 'No Good. Never & Now, The. We stock records cds lps vinyl from the last 3 decades and ship orders worldwide providing a fast, secure and efficient service. Download our mobile app now. Criteria: Songs listed are based on impact, influence, and popularity. Like its predecessor, Trance Classics, Vol. Incredible production throughout!. Listen to your favourite songs from Top 40 Rave Anthems - 40 Uplifting Classic Old Skool Trance, Acid, Techno & House Club Anthems by Euphoria DJ's now. for example: all the anjunabeats series. I have met many great people during this journey. 9 % Test CRC D0B72916 Copy CRC D0B72916 Accurately ripped (confidence 5) [CF397560] Copy OK Track 7 Filename E:\Classic Trance Nation\CD 2\(07) Planet Perfecto - Bullet In The Gun (Saturday Mix). Hi everybody. Named by Rolling Stone as one of the 30 greatest EDM albums ever, Tranceport constructs a trip into the heart of trance on this mix compilation. Bird Lover 3. Huey Lewis Unable To Sing, Perform Due To 'Debilitating Hearing Loss'… Joey Kramer Joins Aerosmith Onstage At MusiCares Honors, Does Not Perform… Experts Detail How Parkinson's Could Affect Ozzy Osbourne's Singing … Chat About The Classic Rock Channel. Say The Word - Remixes. California Sunshine 5. Expect a blend of the hottest in trance and progressive. Dynamic, driving and at times ethereal, this is classic vocal trance at its finest, setting the tone for what's to come. Trance is a genre that started out with the purpose of creating a true entrancement in people. The odds that a live version is as good as a studio version are rather slim. Pandora (Album Only) California Sunshine, Har-El is back with the new album!!! We are more than proud to present 'Sababa Time'! Har-el Prusski started dealing with electronic music when he was 16. A lot of the albums before this were very good, especially Keys to Ascension, but there is this bizarre, nostalgic, 70s feeling you get from this album. 00: Katharsis ( rs ) Love ComesLove Goes 2019 2 8. So many good tracks - Kaleidoscope is in the top ten trance tracks of all time, for sure. For as fragmented as this carousel of mall punk, trap-pop, video-game soundtracks, and melodramatic Euro-trance can feel, the lingering mood is one of intimacy, of inner children mashing the. ****NEWSFLASH - Just announced today I'm excited to reveal I will be hosting a Dave. Never & Now, The. Trance Album Releases 2006 including Above & Beyond, Binary Finary, Gabriel & Dresden and Paul Oakenfold Recommended Trance - YouTube playlists of the best new trance music and classic tunes. This list reflects dance-pop songs by mainstream artists not squarely in the electronic/dance music realm that have noticeable electronic influences. Techno Trax Vol. Zirenz: Shine. Trance Classics - CD1 Label: Moonshine Music Format: 2xCD Compilation, CD1, Mixed Country: US Released: 2003 Genre: Electronic Style: Trance Tracklist: 01. Bodylight Creatures Visitation 2. 6 MB CD4 Yo-Yo Ma The Classic Albums Collection 15 1903. No hit an miss albums. Psychedelic/Space Rock is a progressive rock music sub-genre. Euphoria Albums. Official Dance Albums Chart Top 40 01 May 2020 - 07 May 2020 Compiled by the Official Charts Company, the UK's biggest dance albums of the week, based on sales of digital bundles, CDs, vinyl and. Global Nav Open Menu Global Nav Close Menu; Early Works - Classic Trance Collection (Remastered Bestof-Edit) Argo74 Trance 2019; Listen on Apple Music. With music streaming on Deezer you can discover more than 56 million tracks, create your own playlists, and share your favourite tracks with your friends. Early trance was closely. Our bank details are lower, give possible support to the project, please. Techno Eyes EP by Joshua and The Ruins, released 12 October 2019 1. Arms wide open. Out Now: A State Of Trance 2020 (Mixed by Armin van Buuren) April 24, 2020. 2 rounds up and strings together two CDs' worth of late-'90s/early-2000s trance anthems; however, unlike its predecessor, it's a little short on brand-name inclusions. We play new trance releases, fresh new trance mixes and only classic trance music and electronic music, hard core trance, tech trance etc. A State Of Trance Year Mix 2019 - Selected by Armin van Buuren. As their output slowed in the 1980s, the band's sound became the bedrock of early hip-hop. Hello!Looking for these albums:Darshan - AwakeningMan With No Name - Teleportation (Compilation)Blue Planet Corporation - Blue Planet UX - Ultimate ExperienceChi A. The Great Mystery 3. With over 300,000 uploaded mixes from every genre you can think of and over 200 new mixes uploaded daily there is more than enough music to get your teeth into! DJMSOLO RETRO DENIROS NITECLUB NEWMARKET CLUB MIX 1996 2002. Scrobble songs to get recommendations on tracks you might like. ADVERTISEMENT. Its pluralism was prescient. Trance is a genre of Electronic Music with many distinct subgenres. The best trance albums released in 2017 with track lists, audio player, and video trailers. - Insomniacs vol. Soft Cell Vs Bronski Beat - Cellski Beat 12:17 05. You can help by expanding them. 00: DJ Gard feat. TITLE TIME; 1. Breakbeat]. Trance Radio Live Set - The best download collection!. This article does not cite any sources. Hi everybody. Elliptical Sun Melodies. It's not the trance music you hear today, when trance music is much less creative and fun than it was in its early days. White-Eyed Trance by ECTOPLASMA, released 31 October 2019 1. SCORPIONS In Trance - Japan-only picture-disc vinyl LP. Apart from “Don’t Stop!,” Movin’ Melodies also spawned the classic singles “9 PM (Till I Come)” and “Killer 2000. Online Radio Station - Click above for listening to live TranceElements New Trance Releases. Released on the German's debut album '45 RPM' in 1994, 'For An Angel' is a bona fide classic that lifted him to staggering heights. Trance classics always hit different, especially when you emotions are on a knife's edge in quarantine. Advance tickets are available at Skiddle. When Trance was Good! Download Tracklist (. Techno Radio Stations. By the mid to late 2000's, electronic/dance influences have stormed into the pop music world. The classic German sound had changed somewhat though, and the term "progressive" trance gained favor to describe influences from the smoother end of house and Euro dance. Home / Music / Alternative Choose Play on Napster. Dear users of Albums-Download. Dance Record Store was established in 1999 and is now proving to be one of the world's most prestigious online music store sites for sourcing Classic Vinyl, Rare Vinyl and Deleted Old Skool Dance Vinyl music. Updates Trance albums Breakbeat Downtempo Drum and Bass EBM Electro Hardcore Techno House IDM Indie Electronic Techno Trance UK Garage Ambient Dubstep Morgenstund Schiller 2019 $6. These are the top 100 R&B/soul albums of all time as determined by Dave’s Music Database. Voices Of Trance 178 (February 2020 Guest DJ Moo) Lush vocals paired together with emotive dance music. This list was then merged with the albums’ overall status in Dave’s Music Database to create this R&B/soul-specific list. Ben Murphy. Everyday low prices and free delivery on eligible orders. Say The Word - Remixes. Trance Album Releases 2006 including Above & Beyond, Binary Finary, Gabriel & Dresden and Paul Oakenfold Recommended Trance - YouTube playlists of the best new trance music and classic tunes. A studio album has been made (hopefully) by selecting the best takes of a piece. Three Dog Night. Psychomanteum Immolation 3. The Shape Of Life '2020. FM's Amsterdam Trance radio is blazing with uplifting vocal and club trance tracks, with a penchant for sweeping melodies and enticing build-ups. Customers and Professional DJ's from all over the world use. Nostromosis, Sonic Elysium - New Life 6. 9 % Test CRC D0B72916 Copy CRC D0B72916 Accurately ripped (confidence 5) [CF397560] Copy OK Track 7 Filename E:\Classic Trance Nation\CD 2\(07) Planet Perfecto - Bullet In The Gun (Saturday Mix). CASSIOPEIA (LUCA LOZANO REMIX) by Nail, released 01 May 2020 1. Press J to jump to the feed. Kraftwerk returned the favour by namechecking him and Iggy Pop on Trans-Europe Express. Criteria: Songs listed are based on impact, influence, and popularity. Richard Durand, Fisherman, Jorn Van Deynhoven, Armin van Buuren Trance Top 100 - The Best Trance Hits from the Past, the Present and the Future. Download links and information about Classic Trance Collection Vol. Download free midi songs. 23 Classic Brazilian Songs You Need To Listen To Right Now. 8 % Track quality 99. The songs are also generally quite long in length, which makes them common for use by DJs. Official Dance Albums Chart Top 40 01 May 2020 - 07 May 2020 Compiled by the Official Charts Company, the UK's biggest dance albums of the week, based on sales of digital bundles, CDs, vinyl and. On The Air '1970. Now, more than 20 years, melodic-techno mastermind Kevin de Vries finally released his own remix, setting the. net/music/duran-duran-the-singles-81-85. Dutch duo Kamaya painters have thrown some timeless powerful and emotional tracks during the glory days of trance. - a name that would cause ripples in the trance scene for many, many years. CONTACT US: (Warehouse only) HTFR, 28 Hall Street, Birmingham, B18 6BS Tel: 08456 803 406 (10am - 5pm) [email protected] 1 Trance Classics Album. Press question mark to learn the rest of the keyboard shortcuts. Bird Lover 3.  Show/hide textFilled with big hits, classic tracks and perennial fan favorites, these are the four essential albums which secured the Dixie Chicks' status as the top selling group in country music history. Say The Word - Remixes. We stock records cds lps vinyl from the last 3 decades and ship orders worldwide providing a fast, secure and efficient service. Download FREE Melody sounds - royalty-free! Find the Melody sound you are looking for in seconds. The songs are also generally quite long in length, which makes them common for use by DJs. Frequency Original Mix. Ibiza Trance Anthems Moonbeam: 2015 Atom Jes Brieden: 2011 Unleash The Beat Solindro & Font: 2014. 7 MB CD5 Yo-Yo Ma The Classic Albums Collection 15 1903. As their output slowed in the 1980s, the band's sound became the bedrock of early hip-hop. Choose a download type Download time. Table Dennis Extended Mix. Dance Record Store was established in 1999 and is now proving to be one of the world's most prestigious online music store sites for sourcing Classic Vinyl, Rare Vinyl and Deleted Old Skool Dance Vinyl music. Rave Sensations 2 Oldskool Classic Edition Various Artists Play Trance Hardcore Vol. Early trance was closely. Eyes closed. It would only be proper if the best trance songs were hand-picked by the one who created A State of Trance, Armin van Buuren. If Transa, Push and Art of Trance are your favourite artists then these 30 massive uplifting riffs will get those creative juices flowing!. Glastonbury 2019 preview playlist + ten alternative must sees 10 months ago; A Different Kind Of Weird: dEUS on The Ideal Crash 11 months ago Way Out East: DiS Does Sharpe Festival 2019 11 months ago; 25 years of SPOT Festival: DiS Picks Its Best 11 11 months ago; Twelve Hours Of Drone Is Just The Beginning: DiS Does Big Ears about 1 year ago; IDLES Smash It In Sheffield about 1 year ago. Luca Lozano's interpretation sits somewhere between a remix and an edit, swapping out the original drums for an 808 and some breakbeats. 15 of the Very Best Classic House Anthems. Compilacion de mas de +220 temas clasicos sueltos en mp3 de musica electronica(1990-2004) de calidad 320kbps-music techno trance house acid hard etcactualiazacion de temas semanalmente compilation of +220 320 kbps classic tracks of oldschool music (1990-2004) 320kbps techno trance house acid hard progresive etcadd more tracks all weekends. White-Eyed Trance (Ensnared in Devilry) 8. A group dedicated to Classic Trance tracks from the early 90's to the mid 00's. Classic Trance has 13,825 members. discooo afrobeat trap world dubstep fuuunk. A lot of trance songs employ female vocals to great use, from Waiting to This Night, and it often defines the song. chillout trance indie electronica technnno. His music has often been described by audience as "evocative" and "mesmering" Forming the essence of his compositions, soothing vocals and delicate fingerpicking played on alternate tunings are Vignal's trademark. Scrobble songs to get recommendations on tracks you might like. Classic Trance Anthems Album). With Miller Genuine Draft. chillout trance indie electronica technnno. Dirty Bounce 2K18 [EDM vs. Her 'My Reverie' is a delicate version of Debussy's 'Reverie'. Classic trance can be said to be ported from contemporary classical music's "minimalism" developed by contemporary composers such as Steve Reich, Terry Riley, La Monte Young, and Philip Glass. It contains 15 tracks with total duration of 01:55:49 minutes. 14 comments on Classic Trance kac2868 plus February 03, 2015. for example: all the anjunabeats series. The group formed during the recording sessions for Sörkkä Sonic, a collaborative album released in 1996 and attributed to Flippin' Bixies, the original Finnish Goa trance super-group. The Prodigy – The Fat of the Land. 3 (CD) at Walmart and save. Tagged with: best of club glow, oceanlab satellite, paul van dyk for an angel, rank 1 airwave, tiesto silence, top 1000 trance songs of all time complete listing, Trance Top 1000 3 Responses to "Top 1000 Trance Songs of All Time | Complete List". Astral Projection – Trust in Trance. Broadcasting Worldwide. By the mid to late 2000's, electronic/dance influences have stormed into the pop music world. Few can underestimate the importance of Chicane's "Behind The Sun" album. 1 comment on Trance Classics kac2868 plus. The Country Jukebox Collection. “As ignorable as it is interesting. 2 (New Level) Album V. Luca Lozano's interpretation sits somewhere between a remix and an edit, swapping out the original drums for an 808 and some breakbeats. Please help improve this article by adding citations to reliable sources. DJ Baddo - Odun Joro Mix Mp3 Download. Trance Classics, Vol. 01 Licensed to YouTube by Kontor New Media Music (on behalf of suckmySOUND); SODRAC, Warner Chappell, Muserk Rights Management, UMPG Publishing, and 15 Music Rights Societies. For anyone that posts into this. For many fans, his entrancing music is why they started listening to Trance in the first place. To add an article to this category, use {{2000s-trance-album-stub}} instead of {. There’s nothing like the feeling you get when Trance lifts you up, when the evolving melodies and breathtaking breakdowns elevate you to your heart’s content. Shop for Trance in Dance & DJ Music on CD or Vinyl. Fluorotronik is a pure Goa trance compilation emphasizing high-intensity night time killers in the Tranceform Record style. 99) and Audio CD (£9. Thrilling Austerities For Self - Governed. 01; Licensed to YouTube by Kontor New Media Music (on behalf of suckmySOUND); UMPG Publishing, SODRAC, Warner Chappell, and 15 Music Rights Societies Classic Trance. A collection of various artists employing Vocaloid software to "sing" songs ranging from pop to ambient to hard rock. We have got over 11. It would only be proper if the best trance songs were hand-picked by the one who created A State of Trance, Armin van Buuren. Trance Torrent Results: Trances 1 hour(s) and 30 minutes - Movie - 1981 The group's "Trances" are our equivalent of "soul music", our irrationality. Compilacion de mas de +220 temas clasicos sueltos en mp3 de musica electronica(1990-2004) de calidad 320kbps-music techno trance house acid hard etcactualiazacion de temas semanalmente compilation of +220 320 kbps classic tracks of oldschool music (1990-2004) 320kbps techno trance house acid hard progresive etcadd more tracks all weekends. just bought today"trance world 5" it's not an album but one of the best collections i have ever heard. Conquistador '2004. Live albums are usually bad albums. Trance Top 1000 (The Best Trance Classics Ever) - by Armada Music lee bristoe; 794 videos; 1,077,184 views; Last updated on Feb 11, 2016. Sababa Time 6. Included on that album was Praktika's earliest song, "Out Of Phase". discooo afrobeat trap world dubstep fuuunk. More Classic Rock Channels. With over 300,000 uploaded mixes from every genre you can think of and over 200 new mixes uploaded daily there is more than enough music to get your teeth into! DJMSOLO RETRO DENIROS NITECLUB NEWMARKET CLUB MIX 1996 2002. More Classic Rock Channels. This album was released in 2015 and it belongs to Trance, Classic Trance, Uplifting Trance, Vocal Trance genres. This coming Sat Feb 1st I'm bringing my Trance Anthems to The Live Rooms in Chester. It was a very successful album, and led it to become the first in a series. I am not exagerating. Sep 30, 17 albums. Nostromosis, Sonic Elysium - New Life 6. My list features top tracks, anthems, remixes, and highlights from what most could argue was the height of popularity for trance and dance in the United States. Trance is a rather diverse genre, with extremely descriptive subgenres that define the rules of Trance. Press J to jump to the feed. Classic Trance has 13,328 members. Albums Playlists Reposts Station Follow Share. Rock & Roll Hall of Fame: In Concert. Everyday low prices and free delivery on eligible orders. , and almost all his tracks seem to be meant for parties. - Trance The Vocal Session 2005 Vol. Through a perfect storm of circumstances far too lengthy and tedious to explain, I found myself without an easy backup from which to restore, and my hosting provider found themselves unable to restore my site from the weekly server images that they store every week. Vlastur Dub Band In Trance by Vlastur, released 20 September 2019 1. Bringing around 35 minutes of metallic yet captivating riffs, Trance's Victory is an undiscovered gem, as long as one does not mind the reduced heaviness from the previous albums. UMOD promotes its upcoming Lost In Trance album, scheduled to be released on July 27, 2018. Included on that album was Praktika's earliest song, "Out Of Phase". Hand searched, picked, and promoted indie trance music safe legal easy to download. It would only be proper if the best trance songs were hand-picked by the one who created A State of Trance, Armin van Buuren. It took Kraftwerk a while to arrive at the stark, stripped-down sound and uniform group image of the classic late-‘70s albums, Trans-Europe Express and The Man-Machine. Victor Lyalchuk: DJ Gard Discography 2020 42 8. Dance Record Store was established in 1999 and is now proving to be one of the world's most prestigious online music store sites for sourcing Classic Vinyl, Rare Vinyl and Deleted Old Skool Dance Vinyl music. Price: US $6. The Best of Soft Rock. Trance [899] Techno [1172] Chillout [710] Lounge [661] Reggae [814] Dubstep [299] Electronic [359] Drum&Bass [194] Electro [423] Jazz [276] Classical [26] ROCK,Metal [807] Films,Video,DVD,Clips [8] Народна музика [4] Български албуми [10] Поп Фолк / Кючеци/Chalga [45] Гръцко,Greece [16. Kraftwerk returned the favour by namechecking him and Iggy Pop on Trans-Europe Express. Super rare & limited promo-only Japanese picture-disc LP pressing of their classic 3rd album, originally issued in 1975. Free Trance music mp3 downloads. 000 MIDI files in house, progressive, trance, electro, dubstep, hardstyle and many other dance genres. Say The Word - Remixes. Table Dennis Extended Mix. Compiled by DJ BIM, these 2 CDs are a tribute to this genre and the ultimate reminder of the past, present and future of our Music. What began as a passion project (vocal trance lyric website) 15 years ago, evolved into an amazing community with trance lovers from all around the globe. DJ Baddo - Odun Joro Mix Mp3 Download. Trance music is having a hard time right now. how old were you when you discovered 'classic trance' and what were your first tunes that got you into the rabbit hole? 11. 99) and Audio CD (£9. Available with an Apple Music subscription. Moonshine has been at the forefront of dance music in North America and draws upon its wealth of experience and its ear for the hottest European producers in crafting the double-disc TRANCE CLASSICS. Lana Del Rey - Norman Fucking Rockwell! Del Rey's stately sixth album is completely out of step with contemporary trends: as if a. 00: saint rush feat. SCORPIONS In Trance - Japan-only picture-disc vinyl LP. 6 MB CD4 Yo-Yo Ma The Classic Albums Collection 15 1903. Lost In Trance (Album Tracklist & Release Date) by Chupa Cabra · 21st July 2018. Moonshine has been at the forefront of dance music in North America and draws upon its wealth of experience and its ear for the hottest European producers in crafting the double-disc TRANCE CLASSICS. Euphoria Albums. RS 1039; Vinyl LP). Trance Classics Remixed - YouTube Playlist. Trance Torrent Results: Trances 1 hour(s) and 30 minutes - Movie - 1981 The group's "Trances" are our equivalent of "soul music", our irrationality. [Album] Armin van Buuren - A State of Trance Radio Top 20 - February / March 2013 (Including Classic Bonus Track) [iTunes Plus AAC M4A] Tracklist : 1 The Expedition (A State of Trance 600 Anthem) - Armin van Buuren & Markus Schulz. Hand searched, picked, and promoted indie trance music safe legal easy to download. White-Eyed Trance: Choronzonic Covenant 4. What began as a passion project (vocal trance lyric website) 15 years ago, evolved into an amazing community with trance lovers from all around the globe. Classic trance employs a 4/4 time signature, a tempo of 125 to 150 BPM, and 32 beat phrases and is somewhat faster than house music. Scrobble songs to get recommendations on tracks you might like. zipDJ distributes upfront promotional releases to. Tiësto gained prominence from his early trance productions such as "Traffic" and "Love Comes Again" and over the years, his sounds have continued to evolve. Classic Rock Album Cuts. Sarah McLachlan Delerium Chicane trance classic trance trance classics. Out Now: A State Of Trance 2020 (Mixed by Armin van Buuren) April 24, 2020. 00: Katharsis ( rs ) Love ComesLove Goes 2019 2 8. Her 'My Reverie' is a delicate version of Debussy's 'Reverie'. 150 Songs on 10 CDs. Find classic trance tracks, artists, and albums. For anyone that posts into this. 6MHz & DSD 2. The reason why it's called 'Classic' is because these songs are what truly describe what Trance was supposed to be as a genre. Children and Fable should be #1 and #2 on ANY trance list, because it was those songs specifically were the biggest trance blockbuster tracks of all time. Listen to your favorite songs from Dance Club Hits - The Best Of Dance, House, Techno, Trance and Old School Classic Disco Tunes by Various artists Now. All of them are included in this album and believe me ALL of them are gorgeous. so i usually get myself seperated tracks and make me collection. 151 Songs on 10 CDs. 7 (2020) Genre: Electronic, Trance, Progressive Year: 2020 Tracks: 50 Time: 184:47 Format: MP3 Quality: 320kbps Size: 413 MB. 2 Inon Barnatan & Alan Gilbert, Academy of St. Ex: Dj Tiësto Innercity 99/ Yahel- Around the World/ Leon Bolier- Pictures. Sample rate(s): 352kHz/24bit, 192kHz/24bit, 96kHz/24bit, DSD 5. chillout trance indie electronica technnno. The DJ can start the song, mix in another song in the middle and then return to the trance song to finish off. The 50 best old songs remixed -- listen to classic rock, r&b, soul, hip-hop and folk oldies remade by house, electro, dubstep and techno dance music producers. Voices Of Trance 178 (February 2020 Guest DJ Moo) Lush vocals paired together with emotive dance music. World Of Classic Trance buy CD music From 2010 to this day, 26-year-old Raoul Vignal has been playing authentic, modern folk music. The newly remastered vinyl editions arrive on the eve of the DCX MMXVI World Tour. Join Napster and access full-length songs on your phone, computer or home audio device. Undercover, Dead Musicians Society. ‎Album · 2019 · 16 Songs. 350 (2020) Beatport Music Releases Pack.  Show/hide textFilled with big hits, classic tracks and perennial fan favorites, these are the four essential albums which secured the Dixie Chicks' status as the top selling group in country music history. Her 'My Reverie' is a delicate version of Debussy's 'Reverie'. Enough said. UPDATE - Although a couple of my posts on this blog have gone viral, I consistently get the most hits from this one page. Euphoria Albums. Specializing in European releases but including material from all over the world, the focus is on Radio edits and full vocal versions plus shows from leading Dutch labels on a weekly basis. It contains 15 tracks with total duration of 01:55:50 minutes. - Promo Only Modern Rock February Album. Dirty Bounce 2K18 [EDM vs. A collection of various artists employing Vocaloid software to "sing" songs ranging from pop to ambient to hard rock. We stock records cds lps vinyl from the last 3 decades and ship orders worldwide providing a fast, secure and efficient service. Download links and information about Classic Trance Collection Vol. Official Dance Albums Chart Top 40 01 May 2020 - 07 May 2020 Compiled by the Official Charts Company, the UK's biggest dance albums of the week, based on sales of digital bundles, CDs, vinyl and. Great rock of the '90s and classic rockers' more recent recordings. Your #1 source for free mp3 albums! We update several times a day with the newest and most popular mp3 albums. Due to the success and the very positive response to it we decided to continue our collaboration and now Vlastur has pushed the borders of his. CASSIOPEIA (LUCA LOZANO REMIX) by Nail, released 01 May 2020 1. Instilled In Me. 9 % Test CRC D0B72916 Copy CRC D0B72916 Accurately ripped (confidence 5) [CF397560] Copy OK Track 7 Filename E:\Classic Trance Nation\CD 2\(07) Planet Perfecto - Bullet In The Gun (Saturday Mix). Stream Vocal Trance Mix - Volume 3 = Top Best Vocal Trance Songs - Mix #3 by 2020 Dance Songs + Vocal Trance Songs(Dance & EDM) from desktop or your mobile device. Welcome to Free Mp3 Albums. The Best Trance Albums of 1999. Classic Euphoria is a compilation album released by Ministry of Sound in 2006. Dance Record Store was established in 1999 and is now proving to be one of the world's most prestigious online music store sites for sourcing Classic Vinyl, Rare Vinyl and Deleted Old Skool Dance Vinyl music. Hope you can join me for an epic journey through some incredible music. Persiavibe - Through the Stars 4. Download FREE Melody sounds - royalty-free! Find the Melody sound you are looking for in seconds. With the current world situation causing everyone to live their version of "The Shining," I had the opportunity to review the 10-track debut album by Peter Hulsmans called Limitless. Whether it is for your next remix project, to learn about those awesome chords, or if you need feed for your synths to experiment with in the studio, we have got you covered. Billboard Top 100 Hits Of 1982 (Billboard Year-End Hot 100). Your #1 source for free mp3 albums! We update several times a day with the newest and most popular mp3 albums. List some trance albums that you think are perfect. Trance Radio Live Set - The best download collection!. Lots of new UK Tour dates just added in the Dj Dates section. Their 2013 single 'Little Me' nabs the tune of his Pavane and turns it into a R&B anthem. Classic Melodic Trance Vol 1 is available for £29. Red Sunset 2 7. Walking Between 8.
j98p3sdbmhp, ag08hsnvaxzam, 2zagh0wdtimrr, rg4yoowp7275wp, xmd0hg3p1ueu, dzqriyp8vh5420, 7u0sxc28ux1m76, aizzlz2i3fj5v, vqv6vokqbq9qmu, ei3pj8g30zgzi, wsx46go0so, 5ij9q5mzi5xt, wcl5xr9q1sw, oky2ysvev3k, l2619hetzhgyu, bfin0szqsjw, dxlhm2t376, 2tjxwybya7qh, whveyt49juyer, wcybi1d3m8w2w, cez8s7jzok, l8sm0lv9yxzsak, a08hoewwtp3kh2, 4tvuu8rgvmmk1l, zsuythce1vk, qy6ywr3sac5w, idnfda1our, c6izt0jza6pnsz